Download Laal Singh Chaddha (2022) Hindi (1080p NF WEBRip x265 HEVC 10bit DDP 5.1 ESub) - [Musafirboy] Torrent | 1337x

Laal Singh Chaddha (2022) Hindi (1080p NF WEBRip x265 HEVC 10bit ...

  • Category Movies
  • Type Bollywood
  • Language Hindi
  • Total size 3.5 GB
  • Uploaded By Musafirboy
  • Downloads 11446
  • Last checked 3 weeks ago
  • Date uploaded 4 weeks ago
  • Seeders 217
  • Leechers 49

Laal Singh Chaddha

DramaComedyRomance

Events in India's history unfold through the perspective of Laal Singh Chadda , a man with a low IQ.

Infohash : 676957B5D5EA67E9B410527530B09B110B9CCC39





Laal Singh Chaddha (2022) | Hindi

📀1080p NF WEBRip | HEVC 10Bit | DDP 5.1

🔊 Original Audio: Hindi











Media Information


Code:

General
Unique ID : 74774620979660654587256558020539482532 (0x3841117318E02CB22A348355E99481A4)
Complete name : Laal.Singh.Chaddha.(2022).1080p.WEBRip.10bit.DDP.5.1.HEVC-[Musafirboy].mkv
Format : Matroska
Format version : Version 4
File size : 3.51 GiB
Duration : 2 h 37 min
Overall bit rate : 3181 kb/s
Movie name : Laal.Singh.Chaddha.(2022).1080p.WEBRip.10bit.DDP.5.1.HEVC-[Musafirboy]
Encoded date : UTC 2022-10-06 04:46:34
Writing application : [Musafirboy]
Cover : Yes
Attachments : cover.jpg

Video
Format : HEVC
Format/Info : High Efficiency Video Coding
Format profile : Main [email protected]@Main
Codec ID : V_MPEGH/ISO/HEVC
Duration : 2 h 37 min
Bit rate : 2540 kb/s
Width : 1920 pixels
Height : 800 pixels
Display aspect ratio : 2.40:1
Frame rate mode : Constant
Frame rate : 24.000 FPS
Color space : YUV
Chroma subsampling : 4:2:0
Bit depth : 10 bits
Bits/(Pixel*Frame) : 0.069
Stream size : 2.80 GiB (80%)
Title : [Musafirboy]
Default : Yes
Forced : No
Color range : Limited
Color primaries : BT.709
Transfer characteristics : BT.709
Matrix coefficients : BT.709

Audio
Format : E-AC-3
Format/Info : Enhanced AC-3
Commercial name : Dolby Digital Plus
Codec ID : A_EAC3
Duration : 2 h 37 min
Bit rate mode : Constant
Bit rate : 640 kb/s
Channel(s) : 6 channels
Channel layout : L R C LFE Ls Rs
Sampling rate : 48.0 kHz
Frame rate : 31.250 FPS (1536 SPF)
Compression mode : Lossy
Stream size : 722 MiB (20%)
Language : Hindi
Service kind : Complete Main
Default : Yes
Forced : No

Subtitle
Format : UTF-8
Codec ID : S_TEXT/UTF8
Codec ID/Info : UTF-8 Plain Text
Duration : 2 h 24 min
Bit rate : 42 b/s
Count of elements : 1671
Stream size : 44.5 KiB (0%)
Language : English
Default : Yes
Forced : No


Source Information


Code:

1080p NF WEB-DL








If you are financially able, please consider making a donation

bitcoin address: 3MHSQJWzztF6gv97qzqeoZSadPZ2GziMSX


Files:

Laal.Singh.Chaddha.(2022).1080p.WEBRip.10bit.DDP.5.1.HEVC-[Musafirboy]
  • Encoded by Musafirboy.txt (0.4 KB)
  • Laal.Singh.Chaddha.(2022).1080p.WEBRip.10bit.DDP.5.1.HEVC-[Musafirboy].mkv (3.5 GB)
  • MusafirBox Plex Streaming.url (0.1 KB)
  • Musafirboy Official.url (0.0 KB)

Comments

Code:

  • udp://tracker.leechers-paradise.org:6969/announce
  • udp://tracker.coppersurfer.tk:6969/announce
  • udp://tracker.opentrackr.org:1337/announce
  • udp://p4p.arenabg.com:1337/announce
  • https://tracker.nanoha.org:443/announce
  • https://tracker.lilithraws.cf:443/announce
  • https://tracker.iriseden.fr:443/announce
  • https://t1.tokhmi.xyz:443/announce
  • http://vps02.net.orel.ru:80/announce
  • http://googer.cc:1337/announce
  • https://tracker.nitrix.me:443/announce
  • https://mytracker.fly.dev:443/announce
  • http://tracker.bt4g.com:2095/announce
  • http://fxtt.ru:80/announce